Download The Shaolin Temple 1982 x264 720p Esub BluRay Dual Audio CHI Hindi GOPISAHI Torrent | 1337x

The Shaolin Temple 1982 x264 720p Esub BluRay Dual Audio CHI Hind...

  • Category Movies
  • Type Dubs/Dual Audio
  • Language English
  • Total size 1,016.9 MB
  • Uploaded By PENDUDESI
  • Downloads 831
  • Last checked 2 hours ago
  • Date uploaded 8 months ago
  • Seeders 5
  • Leechers 8

The Shaolin Temple

Action

The Tang emperor is betrayed by one of his generals, who installs himself as emperor in the East Capital. The son of one of his slave workers escapes to the Shaolin Temple, learns kung fu, and sets out to kill the traitor who killed his father. Based on a true story from Shaolin folklore, but highly fictionalized.

Infohash : 00DF394E57CC3C4696E48BB73137BA2EEBF1BD25

https://www.gopisahi.pw/

Format : Matroska
Format version : Version 4 / Version 2
File size : 1 017 MiB
Duration : 1 h 39 min
Overall bit rate mode : Variable
Overall bit rate : 1 423 kb/s

Video
Format : AVC
Format/Info : Advanced Video Codec
Codec ID : V_MPEG4/ISO/AVC
Duration : 1 h 39 min
Bit rate mode : Variable
Bit rate : 1 099 kb/s
Maximum bit rate : 50.0 Mb/s
Width : 1 280 pixels
Height : 534 pixels
Display aspect ratio : 2.40:1
Frame rate mode : Constant
Frame rate : 23.976 (24000/1001) FPS
Color space : YUV
Chroma subsampling : 4:2:0
Bit depth : 8 bits
Scan type : Progressive
Bits/(Pixel*Frame) : 0.067
Stream size : 785 MiB (77%)

Audio #1
Format : AAC
Duration : 1 h 39 min
Bit rate : 160 kb/s
Channel(s) : 2 channels
Channel positions : Front: L R
Sampling rate : 48.0 kHz
Frame rate : 46.875 FPS (1024 SPF)
Compression mode : Lossy
Stream size : 115 MiB (11%)
Title : GOPISAHI
Language : Hindi

Audio #2
Format : AAC
Duration : 1 h 39 min
Bit rate : 161 kb/s
Channel(s) : 2 channels
Channel positions : Front: L R
Sampling rate : 48.0 kHz
Frame rate : 46.875 FPS (1024 SPF)
Compression mode : Lossy
Stream size : 115 MiB (11%)
Title : GOPISAHI
Language : Chinese

Text #1
ID : 2

Text #2
Language : English


Files:

  • The Shaolin Temple 1982 x264 720p Esub BluRay Dual Audio CHI Hindi GOPISAHI.mkv (1,016.9 MB)

There are currently no comments. Feel free to leave one :)

Code:

  • udp://tracker.coppersurfer.tk:6969/announce
  • udp://tracker.pirateparty.gr:6969/announce
  • udp://shadowshq.yi.org:6969/announce
  • udp://eddie4.nl:6969/announce
  • udp://tracker.leechers-paradise.org:6969/announce
  • udp://tracker.opentrackr.org:1337/announce
  • udp://p4p.arenabg.ch:1337/announce
  • udp://p4p.arenabg.com:1337/announce
  • udp://9.rarbg.me:2720/announce
  • udp://9.rarbg.to:2780/announce
  • udp://tracker.coppersurfer.tk:80/announce
  • udp://tracker.vanitycore.co:6969/announce
  • udp://public.popcorn-tracker.org:6969/announce
  • udp://tracker.opentrackr.org:1337/announce
  • udp://tracker.zer0day.to:1337/announce
  • udp://thetracker.org:80/announce
  • udp://explodie.org:6969/announce
  • udp://tracker.internetwarriors.net:1337/announce