Download World War Z 2013 Extended 720p Esub BluRay English Hindi Tamil Telugu GOPISAHI Torrent | 1337x

World War Z 2013 Extended 720p Esub BluRay English Hindi Tamil T...

  • Category Movies
  • Type Dubs/Dual Audio
  • Language English
  • Total size 813.0 MB
  • Uploaded By PENDUDESI
  • Downloads 1175
  • Last checked 4 months ago
  • Date uploaded 4 months ago
  • Seeders 18
  • Leechers 3

World War Z

ActionDramaHorrorScience FictionThriller

Life for former United Nations investigator Gerry Lane and his family seems content. Suddenly, the world is plagued by a mysterious infection turning whole human populations into rampaging mindless zombies. After barely escaping the chaos, Lane is persuaded to go on a mission to investigate this disease. What follows is a perilous trek around the world where Lane must brave horrific dangers and long odds to find answers before human civilization falls.

Infohash : C33C46A5D6E60553F23CC5EBA4519631987BE21A

https://www.gopisahi.pw/

Format : Matroska
Format version : Version 4 / Version 2
File size : 813 MiB
Duration : 2 h 3 min
Overall bit rate : 924 kb/s
Movie name : World War Z 2013 GOPISAHI

Video
Format : AVC
Format/Info : Advanced Video Codec
Codec ID : V_MPEG4/ISO/AVC
Duration : 2 h 3 min
Bit rate : 599 kb/s
Width : 1 280 pixels
Height : 536 pixels
Display aspect ratio : 2.40:1
Frame rate mode : Constant
Frame rate : 23.976 (24000/1001) FPS
Color space : YUV
Chroma subsampling : 4:2:0
Bit depth : 8 bits
Scan type : Progressive
Bits/(Pixel*Frame) : 0.036
Stream size : 527 MiB (65%)
Title : GOPISAHI
Writing library : x264 core 155 r2901 7d0ff22

Audio #1
Format : AAC
Format/Info : Advanced Audio Codec
Duration : 2 h 3 min
Bit rate : 96.0 kb/s
Channel(s) : 2 channels
Channel positions : Front: L R
Sampling rate : 48.0 kHz
Frame rate : 46.875 FPS (1024 SPF)
Compression mode : Lossy
Delay relative to video : -104 ms
Stream size : 84.7 MiB (10%)
Title : GOPISAHI
Language : Hindi

Audio #2
Format : AAC
Format/Info : Advanced Audio Codec
Duration : 2 h 3 min
Bit rate : 96.0 kb/s
Channel(s) : 2 channels
Channel positions : Front: L R
Sampling rate : 48.0 kHz
Frame rate : 46.875 FPS (1024 SPF)
Compression mode : Lossy
Delay relative to video : -104 ms
Stream size : 84.5 MiB (10%)
Title : GOPISAHI
Language : English

Audio #3
Format : AAC
Format/Info : Advanced Audio Codec
Duration : 2 h 3 min
Bit rate : 64.1 kb/s
Channel(s) : 2 channels
Channel positions : Front: L R
Sampling rate : 48.0 kHz
Frame rate : 46.875 FPS (1024 SPF)
Compression mode : Lossy
Delay relative to video : -104 ms
Stream size : 56.4 MiB (7%)
Title : GOPISAHI
Language : Tamil

Audio #4
Format : AAC
Duration : 2 h 3 min
Bit rate : 64.1 kb/s
Channel(s) : 2 channels
Channel positions : Front: L R
Sampling rate : 48.0 kHz
Frame rate : 46.875 FPS (1024 SPF)
Compression mode : Lossy
Delay relative to video : -104 ms
Stream size : 56.4 MiB (7%)
Title : GOPISAHI
Language : Telugu

Text
Language : English


Files:

  • World War Z 2013 Extended 720p Esub BluRay English Hindi Tamil Telugu GOPISAHI.mkv (813.0 MB)

There are currently no comments. Feel free to leave one :)

Code:

  • udp://tracker.coppersurfer.tk:6969/announce
  • udp://tracker.pirateparty.gr:6969/announce
  • udp://shadowshq.yi.org:6969/announce
  • udp://eddie4.nl:6969/announce
  • udp://tracker.leechers-paradise.org:6969/announce
  • udp://tracker.opentrackr.org:1337/announce
  • udp://p4p.arenabg.ch:1337/announce
  • udp://p4p.arenabg.com:1337/announce
  • udp://9.rarbg.me:2720/announce
  • udp://9.rarbg.to:2780/announce
  • udp://tracker.coppersurfer.tk:80/announce
  • udp://tracker.vanitycore.co:6969/announce
  • udp://public.popcorn-tracker.org:6969/announce
  • udp://tracker.opentrackr.org:1337/announce
  • udp://tracker.zer0day.to:1337/announce
  • udp://thetracker.org:80/announce
  • udp://explodie.org:6969/announce
  • udp://tracker.internetwarriors.net:1337/announce