Download Sucker Punch 2011 x264 720p Esub BluRay Dual Audio English Hindi GOPISAHI Torrent | 1337x

Sucker Punch 2011 x264 720p Esub BluRay Dual Audio English Hindi ...

  • Category Movies
  • Type Dubs/Dual Audio
  • Language English
  • Total size 773.2 MB
  • Uploaded By PENDUDESI
  • Downloads 1786
  • Last checked 8 months ago
  • Date uploaded 8 months ago
  • Seeders 17
  • Leechers 10

Sucker Punch

ActionFantasyThriller

A young girl is institutionalized by her abusive stepfather. Retreating to an alternative reality as a coping strategy, she envisions a plan which will help her escape from the mental facility.

Infohash : F9246DADB47C112FBF0308A350D48433E8B924CD

https://www.gopisahi.pw/

Format : Matroska

Format version : Version 4 / Version 2

File size : 773 MiB

Duration : 1 h 49 min

Overall bit rate : 985 kb/s

Movie name : Sucker Punch 2011 GOPISAHI


Video

Format : AVC

Format/Info : Advanced Video Codec

Codec ID : V_MPEG4/ISO/AVC

Duration : 1 h 49 min

Bit rate : 795 kb/s

Width : 1 280 pixels

Height : 528 pixels

Display aspect ratio : 2.40:1

Frame rate mode : Constant

Frame rate : 23.976 (24000/1001) FPS

Color space : YUV

Chroma subsampling : 4:2:0

Bit depth : 8 bits

Scan type : Progressive

Bits/(Pixel*Frame) : 0.049

Stream size : 624 MiB (81%)

Title : GOPISAHI

Writing library : x264 core 115 r1995 c1e60b9


Audio #1

Format : AAC

Duration : 1 h 44 min

Bit rate : 96.0 kb/s

Channel(s) : 2 channels

Channel positions : Front: L R

Sampling rate : 48.0 kHz

Frame rate : 46.875 FPS (1024 SPF)

Compression mode : Lossy

Delay relative to video : 3 s 988 ms

Stream size : 71.5 MiB (9%)

Title : GOPISAHI

Language : Hindi


Audio #2

Format : AAC

Duration : 1 h 49 min

Bit rate : 96.0 kb/s

Channel(s) : 2 channels

Channel positions : Front: L R

Sampling rate : 48.0 kHz

Frame rate : 46.875 FPS (1024 SPF)

Compression mode : Lossy

Stream size : 75.3 MiB (10%)

Title : GOPISAHI

Language : English


Text

Language : English


Files:

  • Sucker Punch 2011 x264 720p Esub BluRay Dual Audio English Hindi GOPISAHI.mkv (773.2 MB)

There are currently no comments. Feel free to leave one :)

Code:

  • udp://tracker.coppersurfer.tk:6969/announce
  • udp://tracker.pirateparty.gr:6969/announce
  • udp://shadowshq.yi.org:6969/announce
  • udp://eddie4.nl:6969/announce
  • udp://tracker.leechers-paradise.org:6969/announce
  • udp://tracker.opentrackr.org:1337/announce
  • udp://p4p.arenabg.ch:1337/announce
  • udp://p4p.arenabg.com:1337/announce
  • udp://9.rarbg.me:2720/announce
  • udp://9.rarbg.to:2780/announce
  • udp://tracker.coppersurfer.tk:80/announce
  • udp://tracker.vanitycore.co:6969/announce
  • udp://public.popcorn-tracker.org:6969/announce
  • udp://tracker.opentrackr.org:1337/announce
  • udp://tracker.zer0day.to:1337/announce
  • udp://thetracker.org:80/announce
  • udp://explodie.org:6969/announce
  • udp://tracker.internetwarriors.net:1337/announce