Download The Firm 1993 720p Esub BluRay Dual Audio English Hindi GOPISAHI Torrent | 1337x

The Firm 1993 720p Esub BluRay Dual Audio English Hindi GOPISAHI

  • Category Movies
  • Type Dubs/Dual Audio
  • Language English
  • Total size 877.5 MB
  • Uploaded By PENDUDESI
  • Downloads 668
  • Last checked 1 hour ago
  • Date uploaded 2 months ago
  • Seeders 13
  • Leechers 8

The Firm

DramaMysteryThriller

Mitch McDeere is a young man with a promising future in Law. About to sit his Bar exam, he is approached by 'The Firm' and made an offer he doesn't refuse. Seduced by the money and gifts showered on him, he is totally oblivious to the more sinister side of his company. Then, two Associates are murdered. The FBI contact him, asking him for information and suddenly his life is ruined. He has a choice - work with the FBI, or stay with the Firm. Either way he will lose his life as he knows it. Mitch figures the only way out is to follow his own plan...

Infohash : 1D8C6EBBEC72A424502FF42EF2ABE61D8F6D7AEF

https://www.gopisahi.pw/

Format : Matroska

Format version : Version 4 / Version 2

File size : 877 MiB

Duration : 2 h 34 min

Overall bit rate : 794 kb/s

Movie name : The Firm 1993 GOPISAHI


Video

Format : AVC

Format/Info : Advanced Video Codec

Codec ID : V_MPEG4/ISO/AVC

Duration : 2 h 34 min

Bit rate : 599 kb/s

Width : 1 280 pixels

Height : 720 pixels

Display aspect ratio : 16:9

Frame rate mode : Constant

Frame rate : 23.976 (24000/1001) FPS

Color space : YUV

Chroma subsampling : 4:2:0

Bit depth : 8 bits

Scan type : Progressive

Bits/(Pixel*Frame) : 0.027

Stream size : 662 MiB (75%)

Title : GOPISAHI

Writing library : x264 core 155 r2901 7d0ff22


Audio #1

Format : AAC

Format/Info : Advanced Audio Codec

Duration : 2 h 34 min

Bit rate : 96.0 kb/s

Channel(s) : 2 channels

Channel positions : Front: L R

Sampling rate : 48.0 kHz

Frame rate : 46.875 FPS (1024 SPF)

Compression mode : Lossy

Delay relative to video : 1 s 896 ms

Stream size : 106 MiB (12%)

Title : GOPISAHI

Language : Hindi


Audio #2

Format : AAC

Duration : 2 h 34 min

Bit rate : 96.0 kb/s

Channel(s) : 2 channels

Channel positions : Front: L R

Sampling rate : 48.0 kHz

Frame rate : 46.875 FPS (1024 SPF)

Compression mode : Lossy

Delay relative to video : -104 ms

Stream size : 106 MiB (12%)

Title : GOPISAHI

Language : English


Text

Language : English


Files:

  • The Firm 1993 720p Esub BluRay Dual Audio English Hindi GOPISAHI.mkv (877.5 MB)

There are currently no comments. Feel free to leave one :)

Code:

  • udp://tracker.coppersurfer.tk:6969/announce
  • udp://tracker.pirateparty.gr:6969/announce
  • udp://shadowshq.yi.org:6969/announce
  • udp://eddie4.nl:6969/announce
  • udp://tracker.leechers-paradise.org:6969/announce
  • udp://tracker.opentrackr.org:1337/announce
  • udp://p4p.arenabg.ch:1337/announce
  • udp://p4p.arenabg.com:1337/announce
  • udp://9.rarbg.me:2720/announce
  • udp://9.rarbg.to:2780/announce
  • udp://tracker.coppersurfer.tk:80/announce
  • udp://tracker.vanitycore.co:6969/announce
  • udp://public.popcorn-tracker.org:6969/announce
  • udp://tracker.opentrackr.org:1337/announce
  • udp://tracker.zer0day.to:1337/announce
  • udp://thetracker.org:80/announce
  • udp://explodie.org:6969/announce
  • udp://tracker.internetwarriors.net:1337/announce