Download Incredibles 2 (2018) 1080p 10bit Bluray x265 HEVC [Org BD 5.1 Hindi + DD 5.1 English] MSubs ~ TombDoc Torrent | 1337x

Incredibles 2 (2018) 1080p 10bit Bluray x265 HEVC [Org BD 5.1 Hin...

  • Category Movies
  • Type Dubs/Dual Audio
  • Language Hindi
  • Total size 3.7 GB
  • Uploaded By McuDudeS
  • Downloads 950
  • Last checked 4 months ago
  • Date uploaded 4 months ago
  • Seeders 12
  • Leechers 11

Incredibles 2

ActionAdventureAnimationFamily

Elastigirl springs into action to save the day, while Mr. Incredible faces his greatest challenge yet – taking care of the problems of his three children.

Infohash : 33FEB2468423788154AD517AF9A91F93D75E4196



Back to work....





Incredibles 2 (2018) 1080p 10bit Bluray x265 HEVC [Org BD 5.1 Hindi + DD 5.1 English] MSubs ~ TombDoc


Org Untouched Bluray DD 5.1 640Kbps Hindi Audio By MrRajput {Thanks}


Code:

Format                                   : Matroska
Format version                           : Version 4
File size                                : 3.63 GiB
Duration                                 : 1 h 57 min
Overall bit rate                         : 4 407 kb/s

Video
ID                                       : 1
Format                                   : HEVC
Format/Info                              : High Efficiency Video Coding
Format profile                           : Main [email protected]@Main
Codec ID                                 : V_MPEGH/ISO/HEVC
Duration                                 : 1 h 57 min
Bit rate                                 : 3 351 kb/s
Width                                    : 1 920 pixels
Height                                   : 804 pixels
Display aspect ratio                     : 2.40:1
Frame rate mode                          : Constant
Frame rate                               : 23.976 (24000/1001) FPS
Color space                              : YUV
Chroma subsampling                       : 4:2:0
Bit depth                                : 10 bits
Bits/(Pixel*Frame)                       : 0.091
Stream size                              : 2.76 GiB (76%)
Writing library                          : x265 2.9+2-7e978ed93d60:[Windows][GCC 8.2.0][64 bit] 10bit
Encoding settings: cpuid=1049583 / frame-threads=3 / numa-pools=8 / wpp / no-pmode / no-pme / no-psnr / no-ssim / log-level=2 / input-csp=1 / input-res=1920x804 / interlace=0 / total-frames=169514 / level-idc=0 / high-tier=1 / uhd-bd=0 / ref=4 / no-allow-non-conformance / no-repeat-headers / annexb / no-aud / no-hrd / info / hash=0 / no-temporal-layers / open-gop / min-keyint=23 / keyint=250 / gop-lookahead=0 / bframes=8 / b-adapt=2 / b-pyramid / bframe-bias=0 / rc-lookahead=25 / lookahead-slices=4 / scenecut=40 / radl=0 / no-intra-refresh / ctu=64 / min-cu-size=8 / rect / no-amp / max-tu-size=32 / tu-inter-depth=1 / tu-intra-depth=1 / limit-tu=0 / rdoq-level=2 / dynamic-rd=0.00 / no-ssim-rd / signhide / no-tskip / nr-intra=0 / nr-inter=0 / no-constrained-intra / strong-intra-smoothing / max-merge=3 / limit-refs=3 / limit-modes / me=3 / subme=3 / merange=57 / temporal-mvp / weightp / no-weightb / no-analyze-src-pics / deblock=0:0 / sao / no-sao-non-deblock / rd=4 / no-early-skip / rskip / no-fast-intra / no-tskip-fast / no-cu-lossless / no-b-intra / no-splitrd-skip / rdpenalty=0 / psy-rd=2.00 / psy-rdoq=0.00 / no-rd-refine / no-lossless / cbqpoffs=0 / crqpoffs=0 / rc=abr / bitrate=3350 / qcomp=0.60 / qpstep=4 / stats-write=0 / stats-read=2 / cplxblur=20.0 / qblur=0.5 / ipratio=1.40 / pbratio=1.30 / aq-mode=3 / aq-strength=1.00 / cutree / zone-count=0 / no-strict-cbr / qg-size=32 / no-rc-grain / qpmax=69 / qpmin=0 / no-const-vbv / sar=0 / overscan=0 / videoformat=5 / range=0 / colorprim=2 / transfer=2 / colormatrix=2 / chromaloc=0 / display-window=0 / max-cll=0,0 / min-luma=0 / max-luma=1023 / log2-max-poc-lsb=8 / vui-timing-info / vui-hrd-info / slices=1 / no-opt-qp-pps / no-opt-ref-list-length-pps / no-multi-pass-opt-rps / scenecut-bias=0.05 / no-opt-cu-delta-qp / aq-motion / no-hdr / no-hdr-opt / no-dhdr10-opt / no-idr-recovery-sei / analysis-reuse-level=5 / scale-factor=0 / refine-intra=0 / refine-inter=0 / refine-mv=0 / no-limit-sao / ctu-info=0 / no-lowpass-dct / refine-mv-type=0 / copy-pic=1 / max-ausize-factor=1.0 / no-dynamic-refine / no-single-sei
Default                                  : Yes
Forced                                   : No

Audio #1
ID                                       : 2
Format                                   : AC-3
Format/Info                              : Audio Coding 3
Commercial name                          : Dolby Digital
Codec ID                                 : A_AC3
Duration                                 : 1 h 57 min
Bit rate mode                            : Constant
Bit rate                                 : 640 kb/s
Channel(s)                               : 6 channels
Channel layout                           : L R C LFE Ls Rs
Sampling rate                            : 48.0 kHz
Frame rate                               : 31.250 FPS (1536 SPF)
Bit depth                                : 16 bits
Compression mode                         : Lossy
Stream size                              : 539 MiB (15%)
Language                                 : Hindi
Service kind                             : Complete Main
Default                                  : Yes
Forced                                   : Yes

Audio #2
ID                                       : 3
Format                                   : AC-3
Format/Info                              : Audio Coding 3
Commercial name                          : Dolby Digital
Codec ID                                 : A_AC3
Duration                                 : 1 h 57 min
Bit rate mode                            : Constant
Bit rate                                 : 384 kb/s
Channel(s)                               : 6 channels
Channel layout                           : L R C LFE Ls Rs
Sampling rate                            : 48.0 kHz
Frame rate                               : 31.250 FPS (1536 SPF)
Bit depth                                : 16 bits
Compression mode                         : Lossy
Stream size                              : 324 MiB (9%)
Language                                 : English
Service kind                             : Complete Main
Default                                  : No
Forced                                   : No

Text #1
ID                                       : 4
Format                                   : PGS
Muxing mode                              : zlib
Codec ID                                 : S_HDMV/PGS
Codec ID/Info                            : Picture based subtitle format used on BDs/HD-DVDs
Duration                                 : 1 h 57 min
Bit rate                                 : 22 b/s
Count of elements                        : 154
Stream size                              : 19.2 KiB (0%)
Title                                    : Hindi BD-PGS
Language                                 : Hindi
Default                                  : Yes
Forced                                   : Yes

Text #2
ID                                       : 5
Format                                   : PGS
Muxing mode                              : zlib
Codec ID                                 : S_HDMV/PGS
Codec ID/Info                            : Picture based subtitle format used on BDs/HD-DVDs
Duration                                 : 1 h 56 min
Bit rate                                 : 42.7 kb/s
Count of elements                        : 3522
Stream size                              : 35.5 MiB (1%)
Title                                    : Eng BD-PGS
Language                                 : English
Default                                  : No
Forced                                   : Yes

Text #3
ID                                       : 6
Format                                   : PGS
Muxing mode                              : zlib
Codec ID                                 : S_HDMV/PGS
Codec ID/Info                            : Picture based subtitle format used on BDs/HD-DVDs
Duration                                 : 1 h 56 min
Bit rate                                 : 65.3 kb/s
Count of elements                        : 3896
Stream size                              : 54.7 MiB (1%)
Title                                    : Commentary
Language                                 : English
Default                                  : No
Forced                                   : No

Menu
00:00:00.000                             : en:Tony Interrogation
00:03:22.327                             : en:Incredibles vs Underminer
00:08:53.616                             : en:Chewed Out
00:09:36.784                             : en:Family Dinner
00:13:38.276                             : en:Poolside
00:15:44.735                             : en:Deavor Meets Supers
00:21:19.737                             : en:Pillow Talk
00:23:28.282                             : en:New House
00:27:08.794                             : en:Where's Mom?
00:28:59.571                             : en:Runaway Train
00:35:10.900                             : en:Raccoon Fight
00:39:07.845                             : en:Helen Checks In
00:42:43.894                             : en:Tony Forgets
00:43:42.411                             : en:Air Rescue
00:47:35.352                             : en:Breakfast Blowup
00:48:53.889                             : en:Triumph Return
00:54:15.585                             : en:Vi Embarrassed
00:56:16.039                             : en:Tracking Screenslaver
01:00:58.696                             : en:Screenslaver Caught
01:02:01.884                             : en:Breaking Point
01:06:55.511                             : en:E The Babysitter
01:09:18.237                             : en:Helen Reviews Footage
01:11:28.200                             : en:Bob's Apology
01:12:37.686                             : en:Helen Slips Away
01:14:39.266                             : en:Auntie E
01:18:00.968                             : en:Cold Room
01:20:32.536                             : en:House Attack
01:25:01.930                             : en:Kids Alone
01:27:59.440                             : en:Super Signing
01:31:53.925                             : en:Kids To The Rescue
01:33:26.434                             : en:Trap Is Sprung
01:36:25.237                             : en:Battle Royale
01:37:45.192                             : en:Save The Day
01:43:56.897                             : en:Resolution
01:45:35.912                             : en:Epilogue
01:47:30.902                             : en:End Credits



Code:

Source: Incredibles.2.2018.1080p.BluRay.REMUX.AVC.DTS-HD.MA.7.1-EPSiLON.mkv
File size: 21.6 GiB
Duration: 1 h 57 min
Overall bit rate mode: Variable
Overall bit rate: 26.2 Mb/s





Files:

Incredibles 2 (2018) 1080p 10bit Bluray x265 HEVC [Org BD 5.1 Hindi + DD 5.1 English] MSubs ~ TombDoc
  • McuDudeS ~ TombDoc.txt (0.0 KB)
  • I.2.jpg (509.1 KB)
  • Screen Shots
    • I.2.10.png (956.3 KB)
    • I.2.01.png (966.2 KB)
    • I.2.03.png (1.3 MB)
    • I.2.06.png (1.4 MB)
    • I.2.07.png (1.5 MB)
    • I.2.05.png (1.5 MB)
    • I.2.09.png (1.6 MB)
    • I.2.08.png (1.6 MB)
    • I.2.11.png (1.7 MB)
    • I.2.04.png (1.7 MB)
    • I.2.02.png (1.8 MB)
    • I.2.12.png (1.9 MB)
    Sample
    • Incredibles 2 (2018) Sample.mkv (48.2 MB)
    Movie
    • Incredibles 2 (2018) 1080p 10bit Bluray x265 HEVC [Org BD 5.1 Hindi + DD 5.1 English] MSubs ~ TombDoc.mkv (3.6 GB)

Comments

Code:

  • udp://tracker.coppersurfer.tk:6969/announce
  • udp://tracker.internetwarriors.net:1337/announce
  • udp://tracker.opentrackr.org:1337/announce
  • udp://9.rarbg.to:2710/announce
  • udp://exodus.desync.com:6969/announce
  • udp://public.popcorn-tracker.org:6969/announce
  • udp://explodie.org:6969/announce
  • udp://tracker.vanitycore.co:6969/announce
  • udp://ipv4.tracker.harry.lu:80/announce
  • udp://tracker1.itzmx.com:8080/announce
  • udp://open.demonii.si:1337/announce
  • udp://denis.stalker.upeer.me:6969/announce
  • udp://tracker.torrent.eu.org:451/announce
  • udp://tracker.port443.xyz:6969/announce
  • udp://open.stealth.si:80/announce
  • udp://bt.xxx-tracker.com:2710/announce
  • udp://tracker.tiny-vps.com:6969/announce
  • udp://tracker.iamhansen.xyz:2000/announce
  • udp://retracker.lanta-net.ru:2710/announce
  • udp://zephir.monocul.us:6969/announce