Download Gulebagavali (Gulaebaghavali) 2018 Hindi Dubbed Movie WEB HD 720p X264 AAC 1.1GB [SM Team] Torrent | 1337x

Gulebagavali (Gulaebaghavali) 2018 Hindi Dubbed Movie WEB HD 720p...

  • Category Movies
  • Type Dubs/Dual Audio
  • Language Hindi
  • Total size 1.0 GB
  • Uploaded By BDMovieHD
  • Downloads 1287
  • Last checked 3 weeks ago
  • Date uploaded 4 weeks ago
  • Seeders 4
  • Leechers 3

Gulebakavali

ComedyRomance

A don sends three criminals to recover a treasure buried by his grandfather in a village. A fourth criminal joins the trio en route, and they decide to hoodwink the don and share the treasure between themselves.

Infohash : 13A205CD9B3F831A3BFAF62C53AE4881B4E0FAE5

New Latest HD Movies Download Link :- https://skymovieshd.in
***********************************




Video
ID : 1
Format : AVC
Format/Info : Advanced Video Codec
Format profile : [email protected]
Format settings : CABAC / 3 Ref Frames
Format settings, CABAC : Yes
Format settings, RefFrames : 3 frames
Codec ID : V_MPEG4/ISO/AVC
Duration : 1 h 46 min
Bit rate : 970 kb/s
Width : 1 280 pixels
Height : 720 pixels
Display aspect ratio : 16:9
Frame rate mode : Constant
Frame rate : 25.000 FPS
Color space : YUV
Chroma subsampling : 4:2:0
Bit depth : 8 bits
Scan type : Progressive
Bits/(Pixel*Frame) : 0.042
Stream size : 739 MiB (88%)
Title : Skymovieshd.org
Language : Hindi
Default : Yes
Forced : No
Color range : Limited
Color primaries : BT.709
Transfer characteristics : BT.709
Matrix coefficients : BT.709

Audio
ID : 2
Format : AAC
Format/Info : Advanced Audio Codec
Format profile : LC
Codec ID : A_AAC-2
Duration : 1 h 46 min
Bit rate : 126 kb/s
Channel(s) : 2 channels
Channel positions : Front: L R
Sampling rate : 44.1 kHz
Frame rate : 43.066 FPS (1024 SPF)
Compression mode : Lossy
Stream size : 95.7 MiB (11%)
Title : Skymovieshd.org
Language : Hindi
Default : Yes
Forced : No












New Latest HD Movies Download Link :- https://skymovieshd.in
***********************************


Files:

  • Gulebagavali (Gulaebaghavali) (2018) 720p Hindi Dubbed WEBHD x264 AAC 1.1GB (SkyMoviesHD.in).mkv (1.0 GB)

There are currently no comments. Feel free to leave one :)

Code:

  • http://tracker.opentrackr.org/announce
  • udp://9.rarbg.to:2710/announce
  • udp://tracker.trackerfix.com:80/announce
  • udp://eddie4.nl:6969/announce
  • udp://explodie.org:6969/announce
  • udp://ipv4.tracker.harry.lu:80/announce
  • udp://mgtracker.org:6969/announce
  • udp://open.stealth.si:80/announce
  • udp://p4p.arenabg.ch:1337/announce
  • udp://p4p.arenabg.com:1337/announce
  • udp://public.popcorn-tracker.org:6969/announce
  • udp://shadowshq.yi.org:6969/announce
  • udp://tracker.coppersurfer.tk:6969/announce
  • udp://tracker.coppersurfer.tk:80/announce
  • udp://tracker.internetwarriors.net:1337/announce
  • udp://tracker.leechers-paradise.org:6969/announce
  • udp://tracker.mgtracker.org:2710/announce
  • udp://tracker.opentrackr.org:1337/announce
  • udp://tracker.pirateparty.gr:6969/announce
  • udp://tracker.vanitycore.co:6969/announce
  • udp://tracker.zer0day.to:1337/announce
  • https://jiotorrents.net/announce.php?pk=45c146d4fe1da1cb8d1c064d3431e0546ad49dc3
  • http://tracker.trackerfix.com:80/announce