// //
Download Welcome to Curiosity (2018) 720p BRRip x264 AAC by Full4movies Torrent | 1337x

Welcome to Curiosity (2018) 720p BRRip x264 AAC by Full4movies

  • Category Movies
  • Type HD
  • Language English
  • Total size 700.7 MB
  • Uploaded By shmasti
  • Downloads 246
  • Last checked 4 days ago
  • Date uploaded 1 week ago
  • Seeders 14
  • Leechers 2

Welcome to Curiosity

Thriller

Four interconnected stories surrounding the escape from prison of a notorious serial killer.

Infohash : 898F0CF66EF92CF9C41672AB6CB2FA2D5C3D8557



General
Complete name : Welcome to Curiosity (2018) 720p BRRip x264 AAC by Full4movies.mkv
Format : Matroska
Format version : Version 4 / Version 2
File size : 701 MiB
Duration : 1 h 34 min
Overall bit rate : 1 042 kb/s
Encoded date : UTC 2018-07-09 05:15:47
Writing application : mkvmerge v8.1.0 ('Psychedelic Postcard') 32bit
Writing library : libebml v1.3.1 + libmatroska v1.4.2

Video
ID : 1
Format : AVC
Format/Info : Advanced Video Codec
Format profile : [email protected]
Format settings, CABAC : Yes
Format settings, RefFrames : 4 frames
Codec ID : V_MPEG4/ISO/AVC
Duration : 1 h 34 min
Bit rate : 933 kb/s
Width : 1 280 pixels
Height : 536 pixels
Display aspect ratio : 2.40:1
Frame rate mode : Constant
Frame rate : 24.000 FPS
Color space : YUV
Chroma subsampling : 4:2:0
Bit depth : 8 bits
Scan type : Progressive
Bits/(Pixel*Frame) : 0.057
Stream size : 627 MiB (89%)
Writing library : x264 core 152 r2851 ba24899
Default : Yes
Forced : No

Audio
ID : 2
Format : AAC
Format/Info : Advanced Audio Codec
Format profile : LC
Codec ID : A_AAC
Duration : 1 h 34 min
Bit rate : 107 kb/s
Channel(s) : 2 channels
Channel positions : Front: L R
Sampling rate : 48.0 kHz
Frame rate : 46.875 FPS (1024 SPF)
Compression mode : Lossy
Delay relative to video : -21 ms
Stream size : 72.2 MiB (10%)
Language : English
Default : Yes
Forced : No

Screen Shoots

Files:

  • Welcome to Curiosity (2018) 720p BRRip x264 AAC by Full4movies.mkv (700.7 MB)

There are currently no comments. Feel free to leave one :)

Code:

  • udp://tracker.coppersurfer.tk:6969/announce
  • udp://tracker.opentrackr.org:1337/announce
  • udp://9.rarbg.me:2710/announce
  • udp://tracker.torrent.eu.org:451/announce
  • udp://open.stealth.si:80/announce
  • udp://public.popcorn-tracker.org:6969/announce
  • udp://p4p.arenabg.ch:1337/announce
  • udp://tracker.zer0day.to:1337/announce
  • udp://tracker.pirateparty.gr:6969/announce
  • udp://tracker.leechers-paradise.org:6969/announce
  • udp://tracker.tiny-vps.com:6969/announce
  • udp://bt.firebit.co.uk:6969/announce
  • udp://inferno.demonoid.pw:3397/announce
  • udp://shadowshq.yi.org:6969/announce
  • udp://9.rarbg.to:2780/announce